Natchathira Pongal – Pongal special 2018
Sirappu Pattimandram – Pongal special 2018

[Filmy - dokument] S kuchařem kolem světa / Les Nouveaux Explorateurs E27 – Kolumbie (2007)(CZ)[TVRip]

S kucha?em kolem sv?ta – E:27/Kolumbie (CZ)[TVRip]

Originální název: Les Nouveaux Explorateurs  

Rok vydání: 2007

?as: 55:52 minut

Hrají: Fred Chesneau

Žánr: Dokumentární

Jazyk: CZ 2.0

Titulky: NE

Formát videa: AVI

csfd


Media info:General

Complete name               : F:\S kucha?em kolem sv?ta Les Nouveaux Explorateurs E27 – Kolumbie (2014)(CZ)[TVRip].avi

Format: AVI

Format/Info: Audio Video Interleave

Format profile: OpenDML

File size: 1.27 GiB

Duration: 55mn 52s

Overall bit rate: 3 247 Kbps

Writing application: Lavf54.63.104

Video

ID: 0

Format: AVC

Format/Info: Advanced Video Codec

Format profile: [email protected]

Format settings, CABAC: Yes

Format settings, ReFrames: 1 frame

Codec ID: H264

Duration: 55mn 52s

Bit rate: 2 997 Kbps

Width: 1 280 pixels

Height: 720 pixels

Display aspect ratio: 16:9

Frame rate mode: Variable

Frame rate: 25.000 fps

Color space: YUV

Chroma subsampling: 4:2:0

Bit depth: 8 bits

Scan type: Progressive

Bits/(Pixel*Frame): 0.130

Stream size: 1.16 GiB (92%)

Writing library: x264 core 129

Audio

ID: 1

Format: MPEG Audio

Format version: Version 1

Format profile: Layer 3

Mode: Joint stereo

Mode extension: MS Stereo

Codec ID: 55

Codec ID/Hint: MP3

Duration: 55mn 52s

Bit rate mode: Constant

Bit rate: 256 Kbps

Channel(s): 2 channels

Sampling rate: 44.1 KHz

Compression mode: Lossy

Stream size: 102 MiB (8%)

Alignment: Aligned on interleaves

Interleave, duration: 26 ms (0.65 video frame)

Writing library             : LAME3.99.5

Epizoda 27 (Kolumbie):

Když se ?ekne Kolumbie, v?tšina lidí si asi hned p?edstaví drogové kartely,

míní Fred. A tak nás hned na za?átku seznámí se zázra?ným elixírem,

který má ú?inky s drogou srovnatelné, ale jeho konzumace je naprosto bezpe?ná.

To se jen rozmixuje med se sko?icí, vínem, brandy, krabím masem,

kachními zárodky v prášku a mnohými dalšími „dobrotami"

– a po ránu se vypije kalíšek na ex. Fred však,

jak víme, dává p?ednost dobré chut?, a proto bude sp?chat dál.

Spolu s ním se dozvíme, jak se vyrábí t?tinový cukr,

jak p?ipravit banánové ragú s maniokem a kuku?icí ?i jak zpracovat kakaové boby,

aby z nich byla ta nejlepší horká ?okoláda na sv?t?.

Výjime?ným kuliná?ským zážitkem pak pro Freda bude konzumace speciálního druhu

velkých mravenc? – kulonas. Prý je to opravdová delikatesa.


Download filmy.dokument.s.kucharem.kolem.sveta.les.nouveaux.explorateurs.e27.kolumbie.2007cztvrip.zip
Direct Link


Download


Download filmy.dokument.s.kucharem.kolem.sveta.les.nouveaux.explorateurs.e27.kolumbie.2007cztvrip.zip
Mediafire


Download


Download filmy.dokument.s.kucharem.kolem.sveta.les.nouveaux.explorateurs.e27.kolumbie.2007cztvrip.zip
Prefiles


Download

Both comments and pings are currently closed.

Comments are closed.